Mensajes recientes

Páginas: 1 ... 3 4 5 6 7 8 9 [10]
91
Live wifislax / Re:wifislax64-2.0-final para descarga
« Último mensaje por zasdrakano en 03-03-2019, 05:23 (Domingo) »
como posso usar o script "LINSET" nessa nova versão do Wifislax 64 2.0?????
92
YA TENGO EL FICHERO ...

se me ve y escucha perfectamente con ffplay...
93
COMO LO REPRODUZCO PARA VER SI ME PASA LO MISMO ??

FFPLAY ?
94
# mediainfo mp4.mp4
General
Complete name                            : mp4.mp4
Format                                   : MPEG-4
Format profile                           : Base Media
Codec ID                                 : isom (isom/iso2/avc1/mp41)
File size                                : 399 MiB
Duration                                 : 39 min 30 s
Overall bit rate                         : 1 413 kb/s
Writing application                      : Lavf57.83.100

Video
ID                                       : 1
Format                                   : AVC
Format/Info                              : Advanced Video Codec
Format profile                           : High@L3.1
Format settings                          : CABAC / 5 Ref Frames
Format settings, CABAC                   : Yes
Format settings, ReFrames                : 5 frames
Codec ID                                 : avc1
Codec ID/Info                            : Advanced Video Coding
Duration                                 : 39 min 30 s
Bit rate                                 : 1 280 kb/s
Width                                    : 1 280 pixels
Height                                   : 720 pixels
Display aspect ratio                     : 16:9
Frame rate mode                          : Constant
Frame rate                               : 30.000 FPS
Color space                              : YUV
Chroma subsampling                       : 4:2:0
Bit depth                                : 8 bits
Scan type                                : Progressive
Bits/(Pixel*Frame)                       : 0.046
Stream size                              : 361 MiB (90%)
Writing library                          : x264 core 148 r2643 5c65704
Encoding settings                        : cabac=1 / ref=5 / deblock=1:0:0 / analyse=0x3:0x113 / me=hex / subme=7 / psy=1 / psy_rd=1.00:0.00 / mixed_ref=1 / me_range=16 / chroma_me=1 / trellis=1 / 8x8dct=1 / cqm=0 / deadzone=21,11 / fast_pskip=1 / chroma_qp_offset=-2 / threads=8 / lookahead_threads=8 / sliced_threads=1 / slices=8 / nr=0 / decimate=1 / interlaced=0 / bluray_compat=0 / constrained_intra=0 / bframes=0 / weightp=2 / keyint=250 / keyint_min=25 / scenecut=40 / intra_refresh=0 / rc=abr / mbtree=0 / bitrate=1280 / ratetol=1.0 / qcomp=0.60 / qpmin=0 / qpmax=69 / qpstep=4 / ip_ratio=1.40 / aq=1:1.00
Codec configuration box                  : avcC

Audio
ID                                       : 2
Format                                   : AAC LC
Format/Info                              : Advanced Audio Codec Low Complexity
Codec ID                                 : mp4a-40-2
Duration                                 : 39 min 30 s
Bit rate mode                            : Constant
Bit rate                                 : 128 kb/s
Channel(s)                               : 2 channels
Channel layout                           : L R
Sampling rate                            : 44.1 kHz
Frame rate                               : 43.066 FPS (1024 SPF)
Compression mode                         : Lossy
Stream size                              : 36.2 MiB (9%)
Default                                  : Yes
Alternate group                          : 1
95


@USUARIONUEVO

Borralo cuando lo tengas.
96
Live wifislax / Re:wifislax64-2.0-final para descarga
« Último mensaje por simebuscasere en 02-03-2019, 23:19 (Sábado) »
Calidosos buenas tardes,

Espero estèn bien, tengo creo que la versiòn 1.0 de Wifislax de 64 bits con esta nueva vale la pena hacer el cambio? y otra duda que tengo como podrìa actualizar desde el wifislax que ya tengo a la nueva versiòn, algùn comando en especial.

Mil gracias a quien me oriente, >:(
97
Videos Wireless / Re:ATAQUE LINSET A MI PROPIA RED
« Último mensaje por simebuscasere en 02-03-2019, 23:13 (Sábado) »
Calidoso que versiòn de LINSET tenès?

Saludos,
98
he bajado los ficheros de prueba de este ticket en ffmpeg , y me van bien todos ...

https://trac.ffmpeg.org/ticket/319
99
todos los ficheros me van bien , mp4 , aac  ...  no se rick ... pasame algo.
100
Sigue teniendo ffmpeg problemas con el audio acc.

Mientras yo he compilado otra que no me da problemas.

# sbopkg -ri ffmpeg:ASS=yes:BLURAY=yes:BS2B=yes:CELT=yes:CHROMAPRINT=yes:DC1394=yes:DECKLINK=yes:EBUR128=yes:FDK_AAC=yes:FLITE=yes:FREI0R=yes:GME=yes:GSM=yes:IEC61883=yes:ILBC=yes:LADSPA=yes:LAME=yes:MODPLUG=yes:NETCDF=yes:OPENAL=yes:OPENCORE=yes:OPENCV=yes:OPENSSL=yes:OPUS=yes:RTMP=yes:RUBBERBAND=yes:SCHROEDINGER=yes:SNAPPY=yes:SPEEX=yes:TESSERACT=yes:TWOLAME=yes:VIDSTAB=yes:WEBP=yes:X264=yes:X265=yes:XVID=yes:ZMQ=yes:ZVBI=yes

Dependencias ffmpeg

ffmeg

kodi

Salu2

no lo entiendo , como he de probar ??

cualquier archivo con audio aac ?

Voy a ver si por torrent bajo ficheros con audio aac , ¿como los intentas abrir?

ffplay ?
Páginas: 1 ... 3 4 5 6 7 8 9 [10]